Nightwish-2018-08-12-Walton-On-Trent,UK (Indykid-Pagarn Ver,HD Webcast,BD)

Nightwish
Bloodstock, Catton Park, Walton-On-Trent, England, UK, 2018.08.12
(ProShot NTSC BD25)
PagArn Productions BD-264

Setlist :
01. Intro
02. End of All Hope
03. I Wish I Had An Angel
04. 10th Man Down
05. Come Cover Me
06. Gethsemane
07. Élan
08. Sacrament Of Wilderness
09. Amaranth
10. I Want My Tears Back
11. Devil And The Deep Dark Ocean
12. Nemo
13. Slaying The Dreamer
14. The Greatest Show On Earth : Chapter II – Life > Chapter III – The Toolmaker
15. Ghost Love Score
16. The Greatest Show On Earth : Chapter IV – The Understanding > Chapter V – Sea-Worn Driftwood

General
ID : 1 (0x1)
Complete name : Nightwish – 2018-08-12 – Bloodstock, Walton-On-Trent, England, UK (Indykid-Pagarn BD-264 BD25)\BDMV\STREAM\00003.m2ts
Format : BDAV
Format/Info : Blu-ray Video
File size : 14.0 GiB
Duration : 1h 26mn
Overall bit rate mode : Variable
Overall bit rate : 23.3 Mbps
Maximum Overall bit rate : 33.8 Mbps

Video
ID : 4113 (0x1011)
Menu ID : 1 (0x1)
Format : MPEG Video
Format version : Version 2
Format profile : Main@High
Format settings, BVOP : Yes
Format settings, Matrix : Custom
Format settings, GOP : M=3, N=18
Codec ID : 2
Duration : 1h 26mn
Bit rate mode : Variable
Bit rate : 22.2 Mbps
Maximum bit rate : 30.0 Mbps
Width : 1 920 pixels
Height : 1 080 pixels
Display aspect ratio : 16:9
Frame rate : 29.970 fps
Standard : Component
Color space : YUV
Chroma subsampling : 4:2:0
Bit depth : 8 bits
Scan type : Progressive
Scan order : Top Field First
Compression mode : Lossy
Bits/(Pixel*Frame) : 0.357
Stream size : 13.4 GiB (95%)
Writing library : TMPGEnc Authoring Works 4 Version. 4.0.11.39
Color primaries : BT.709
Transfer characteristics : BT.709
Matrix coefficients : BT.709

Audio
ID : 4352 (0x1100)
Menu ID : 1 (0x1)
Format : AC-3
Format/Info : Audio Coding 3
Mode extension : CM (complete main)
Codec ID : 129
Duration : 1h 26mn
Bit rate mode : Constant
Bit rate : 128 Kbps
Channel(s) : 2 channels
Channel positions : Front: L R
Sampling rate : 48.0 KHz
Bit depth : 16 bits
Compression mode : Lossy
Stream size : 79.1 MiB (1%)

Lineage : “PREMIERE LIVE” Webcast -> FFmpeg (capture & edit) -> uncompressed .ts > TsMuxer (to resynch) > .ts > TMPGEnc Authoring Works 4 > You

Captured by Indykid from HD webcast, authored by PagArn.

Note : the original signal was 30 fps, which is not compatible with blu-ray standards, so the video has been reencoded to 29,97 fps. So LOSSY !

Artwork enclosed.

Enjoy and share freely !!

PagArn, January 2019

Nightwish-2018-08-03-Wacken,Germany (Soberonez-Pagarn Ver,HD Webcast,BD)

Nightwish
Wacken Open Air, Wacken, Germany, 2018.08.03
(ProShot PAL BD25)
PagArn Productions BD-233

Setlist :
01. Intro
02. End Of All Hope
03. Wish I Had An Angel
04. Come Cover Me
05. Gethsemane
06. Élan
07. Amaranth
08. I Want My Tears Back
09. Devil & The Deep Dark Ocean
10. Nemo
11. Slaying The Dreamer
12. The Greatest Show On Earth (Chapter II: Life; Chapter III: The Toolmaker)
13. Ghost Love Score
14. Outro

General
ID : 1 (0x1)
Complete name : Nightwish – 2018-08-03 – Wacken Open Air, Wacken, Germany (Soberonez-Pagarn BD-233 BD25)\BDMV\STREAM\00003.m2ts
Format : BDAV
Format/Info : Blu-ray Video
File size : 12.9 GiB
Duration : 1h 13mn
Overall bit rate mode : Variable
Overall bit rate : 25.2 Mbps
Maximum Overall bit rate : 33.8 Mbps

Video
ID : 4113 (0x1011)
Menu ID : 1 (0x1)
Format : MPEG Video
Format version : Version 2
Format profile : Main@High
Format settings, BVOP : Yes
Format settings, Matrix : Custom
Format settings, GOP : M=3, N=18
Codec ID : 2
Duration : 1h 13mn
Bit rate mode : Variable
Bit rate : 24.1 Mbps
Maximum bit rate : 30.0 Mbps
Width : 1 920 pixels
Height : 1 080 pixels
Display aspect ratio : 16:9
Frame rate : 25.000 fps
Standard : Component
Color space : YUV
Chroma subsampling : 4:2:0
Bit depth : 8 bits
Scan type : Progressive
Scan order : Top Field First
Compression mode : Lossy
Bits/(Pixel*Frame) : 0.464
Stream size : 12.3 GiB (96%)
Writing library : TMPGEnc Authoring Works 4 Version. 4.0.11.39
Color primaries : BT.709
Transfer characteristics : BT.709
Matrix coefficients : BT.709

Audio
ID : 4352 (0x1100)
Menu ID : 1 (0x1)
Format : AC-3
Format/Info : Audio Coding 3
Mode extension : CM (complete main)
Codec ID : 129
Duration : 1h 13mn
Bit rate mode : Constant
Bit rate : 128 Kbps
Channel(s) : 2 channels
Channel positions : Front: L R
Sampling rate : 48.0 KHz
Bit depth : 16 bits
Compression mode : Lossy
Stream size : 67.2 MiB (1%)

Lineage : LIVE Webcast > WellGet > TSSplitter > MKVToolNix GUI > .mkv > TsMuxer > .m2ts > TMPGEnc Authoring Works 4 > You (LOSSY !!!)

Captured by Soberonez from HD webcast and authored by PagArn

Artwork enclosed.

Enjoy and share freely !!

PagArn, September 2018

Nightwish-2018-08-03-Wacken,Germany (Aleister666-SBR1Z Ver,HDTV Broadcast,BD)

Band: Nightwish
City: Wacken, Schleswig-Holstein
Country: Germany
Venue: Wacken Open Air
Bootleg Name: Wacken 2018
Date: 2018/08/03
————————————————
Menu: Yes
Chapters: Yes
Source: ProShot Magenta Musik 360
Recorded By: SBR1Z
Lineage: H264 1920×1080 > TMPGEnc Authoring Works 4 > Menu-Chapters > Blu-Ray Single Layer
Edited & Authored by: Aleister666
Cover: Aleister666
Quality: 10
————————————————
Set List

Intro (1 Minute Countdown Timer)
End of All Hope
Wish I Had an Angel
Come Cover Me
Gethsemane
Élan
Amaranth
I Want My Tears Back
Devil & the Deep Dark Ocean
Nemo
Slaying the Dreamer
The Greatest Show on Earth (Chapter II: Life; Chapter III: The Toolmaker)
Ghost Love Score

Time Length: 01:13:24 Minutes
————————————————
Video: MPEG2 Video 1920×1080 25fps [V: mpeg2 main, yuv420p, 1920×1080]
Audio: 0x4448 48000Hz stereo 1536kbps [A: English [eng] (pcm_bluray, 48000 Hz, stereo, s16, 1536 kb/s)]
————————————————
Notes and comments:

Made from WebCast Recorded by SBR1Z all credits to him.
————————————————
MADE BY FANS FOR FANS – NOT FOR SALE…!!!

INFO FILE BY ALEISTER666

Nightwish-2015-04-18-Chicago,USA (Hurricane62 Ver,BD)

NIGHTWISH
Concord Music Hall
Chicago. IL
April 18, 2015

BLURAY DISC (1920×1080, 30000 kbps, 29 frames/second)

Video was recorded in 1920×1080/60i AVCHD format using a Panasonic HC-V100M Full HD video camera. Camera was hand=held, but stabilized by resting my arm on the rail on the balcony so the image is very stable. Good close-ups, some minor autofocus issues with the stage lighting (lots of strobe effects).

Video was synced to an upgraded audio source, captured using my usual rig: Audio Technica SP-CMC-2 Cardioid Mics -> SP-SPSB-11 Battery Box with Bass Rolloff set at 107 Hz -> Sony PCM-M10 (44.1 MHz/16 bit) with Limiter ON and Low Pass Filter OFF -> WavePad (AGC, Eq & track splitting) -> converted to .flac using Traders Little Helper (SBE’s fixed, flac level 8)

Video converted to .m2v format using Sony Vegas Movie Studio HD Platinum. Chapters and menus added using Sony DVD Architect Studio 5.0

This was my first time seeing a show at this venue. I went for a perch on the balcony with clean sight-lines so that I could capture a good video. Unfortunately, the sound mix was not-so-great up where I was. I’m not sure if the audio was better elsewhere, but from the balcony on the side, Floor’s vocals were not very prominent in the mix. I remastered the audio a total of 4 times and am still not completely happy with the result. It’s not bad, just not as good as I am accustomed to. Play the YouTube video samples and judge for yourself.

“Élan” sample video on YouTube: https://youtu.be/SyljMLx0AFo
“Ever Dream” sample video on YouTube: https://youtu.be/zT0x6JheX2Y

I also captured audio and video of the Delain set, but got neither audio nor video of Sabaton.

00:00:00 Intro – Shudder Before the Beautiful
00:06:37 Yours Is an Empty Hope
00:12:19 Amaranth
00:16:38 She Is My Sin
0:21:26 Endless Forms Most Beautiful
00:27:54 My Walden
00:33:35 The Islander
00:39:25 Élan
00:43:47 Weak Fantasy
00:50:04 Storytime
00:56:12 Ever Dream
01:01:34 I Want My Tears Back
01:06:55 Stargazers
01:11:56 Sleeping Sun
01:17:26 The Greatest Show on Earth
01:29:26 Ghost Love Score
01:40:19 Last Ride of the Day
01:44:54 Outro
01:47:59

To all that download this recording,

Please do not convert this to lossy (mp3) format and then share in a public forum. If you want to convert to mp3 for your own use, have at it! Diluting the bootleg pool only hurts the collector that appreciates a lossless source. Let all those poor folks with full hard drives and slow internet service download the lossless version and convert it themselves. Feel free to share publicly in lossless format, but please keep the information file and artwork with the audio files and make sure that you give the taper the credit that he (me) is due. Never sell – share or trade (in lossless) freely.

Avoid sites like HOB and G101 to keep the filth off of your computer.

Thank you & Enjoy!

‘Cane62

 

Nightwish-2012-07-12-Montreux,Switzerland (Unknown-Pagarn Ver,HDTV Broadcast,BD)

Nightwish
Montruex Jazz Festival, Montreux, Switzerland, 2012.07.12
(ProShot PAL BD25)
PagArn Productions BD-144

Setlist :
01. Slow, Love, Slow
02. I Want My Tears Back
03. Come Cover Me
04. Last Of The Wilds
05. Planet Hell
06. Nemo
07. Over The Hills And Far Away
08. Song Of Myself
09. Last Ride Of The Day

General
ID : 1 (0x1)
Complete name : Nightwish – 2012-07-12 – Montreux Jazz Festival, Montreux, Switzerland (Unknwon-Pagarn BD-144 BD25)\BDMV\STREAM\00003.m2ts
Format : BDAV
Format/Info : Blu-ray Video
File size : 6.77 GiB
Duration : 50mn 6s
Overall bit rate mode : Variable
Overall bit rate : 19.3 Mbps
Maximum Overall bit rate : 26.3 Mbps

Video
ID : 4113 (0x1011)
Menu ID : 1 (0x1)
Format : MPEG Video
Format version : Version 2
Format profile : Main@High
Format settings, BVOP : Yes
Format settings, Matrix : Custom
Format settings, GOP : M=3, N=18
Codec ID : 2
Duration : 50mn 6s
Bit rate mode : Variable
Bit rate : 18.1 Mbps
Maximum bit rate : 23.0 Mbps
Width : 1 280 pixels
Height : 720 pixels
Display aspect ratio : 16:9
Frame rate : 50.000 fps
Standard : Component
Color space : YUV
Chroma subsampling : 4:2:0
Bit depth : 8 bits
Scan type : Progressive
Compression mode : Lossy
Bits/(Pixel*Frame) : 0.393
Stream size : 6.34 GiB (94%)
Writing library : TMPGEnc Authoring Works 4 Version. 4.0.11.39
Color primaries : BT.709
Transfer characteristics : BT.709
Matrix coefficients : BT.709

Audio
ID : 4352 (0x1100)
Menu ID : 1 (0x1)
Format : AC-3
Format/Info : Audio Coding 3
Mode extension : CM (complete main)
Codec ID : 129
Duration : 50mn 6s
Bit rate mode : Constant
Bit rate : 448 Kbps
Channel(s) : 6 channels
Channel positions : Front: L C R, Side: L R, LFE
Sampling rate : 48.0 KHz
Bit depth : 16 bits
Compression mode : Lossy
Stream size : 161 MiB (2%)

Lineage : Unknown > .TS > TMPGEnc Authoring Works 4 > You

Captured by Unknown from HDTV and authored by PagArn

Artwork enclosed ; please feel free to create and share a better one !

Enjoy and share freely !!

PagArn, April 2018