Nightwish-2018-08-12-Walton-on-Trent,UK (Authored By Deer 5001,Pro Shot)

Artist:
Nightwish

Show or Bootleg Title:
2018-08-12 – Bloodstock Open Air, Walton-on-Trent, England

Source:
Video – Pro Shot

DVD Authoring & DVD Cover By Deer 5001

Menu : YES
Chapters : YES
Artwork : YES

Audio/Video Specs:
Video
ID : 224 (0xE0)
Format : MPEG Video
Format version : Version 2
Format profile : Main@Main
Format settings, BVOP : Yes
Format settings, Matrix : Default
Format settings, GOP : Variable
Format settings, picture structure : Frame
Bit rate : 6 000 Kbps
Width : 720 pixels
Height : 480 pixels
Display aspect ratio : 16:9
Frame rate : 29.970 (30000/1001) fps
Standard : NTSC
Color space : YUV
Chroma subsampling : 4:2:0
Bit depth : 8 bits
Scan type : Interlaced
Scan order : Top Field First
Compression mode : Lossy
Bits/(Pixel*Frame) : 0.579
Time code of first frame : 00:00:00:00
Time code source : Group of pictures header
Stream size : 14.4 MiB (91%)

Audio
ID : 189 (0xBD)-128 (0x80)
Format : AC-3
Format/Info : Audio Coding 3
Mode extension : CM (complete main)
Format settings, Endianness : Big
Muxing mode : DVD-Video
Bit rate mode : Constant
Bit rate : 448 Kbps
Channel(s) : 2 channels
Channel positions : Front: L R
Sampling rate : 48.0 KHz
Frame rate : 31.250 fps (1536 spf)
Compression mode : Lossy
Stream size : 1.07 MiB (7%)

Setlist/Chapters:
01. Intro
02. End Of All Hope
03. Wish I Had An Angel
04. 10th Man Down
05. Come Cover Me
06. Gethsemane
07. Elan
08. Sacrament Of Wilderness
09. Amaranth
10. I Want My Tears Back
11. Devil & The Deep Dark Ocean
12. Nemo
13. Slaying The Dreamer
14. The Greatest Show On Earth
15. Ghost Love Score

 

 

Leave a Reply