Nightwish-2018-08-03-Wacken,Germany (Soberonez-Pagarn Ver,HD Webcast,BD)

Nightwish
Wacken Open Air, Wacken, Germany, 2018.08.03
(ProShot PAL BD25)
PagArn Productions BD-233

Setlist :
01. Intro
02. End Of All Hope
03. Wish I Had An Angel
04. Come Cover Me
05. Gethsemane
06. √Član
07. Amaranth
08. I Want My Tears Back
09. Devil & The Deep Dark Ocean
10. Nemo
11. Slaying The Dreamer
12. The Greatest Show On Earth (Chapter II: Life; Chapter III: The Toolmaker)
13. Ghost Love Score
14. Outro

General
ID : 1 (0x1)
Complete name : Nightwish – 2018-08-03 – Wacken Open Air, Wacken, Germany (Soberonez-Pagarn BD-233 BD25)\BDMV\STREAM\00003.m2ts
Format : BDAV
Format/Info : Blu-ray Video
File size : 12.9 GiB
Duration : 1h 13mn
Overall bit rate mode : Variable
Overall bit rate : 25.2 Mbps
Maximum Overall bit rate : 33.8 Mbps

Video
ID : 4113 (0x1011)
Menu ID : 1 (0x1)
Format : MPEG Video
Format version : Version 2
Format profile : Main@High
Format settings, BVOP : Yes
Format settings, Matrix : Custom
Format settings, GOP : M=3, N=18
Codec ID : 2
Duration : 1h 13mn
Bit rate mode : Variable
Bit rate : 24.1 Mbps
Maximum bit rate : 30.0 Mbps
Width : 1 920 pixels
Height : 1 080 pixels
Display aspect ratio : 16:9
Frame rate : 25.000 fps
Standard : Component
Color space : YUV
Chroma subsampling : 4:2:0
Bit depth : 8 bits
Scan type : Progressive
Scan order : Top Field First
Compression mode : Lossy
Bits/(Pixel*Frame) : 0.464
Stream size : 12.3 GiB (96%)
Writing library : TMPGEnc Authoring Works 4 Version. 4.0.11.39
Color primaries : BT.709
Transfer characteristics : BT.709
Matrix coefficients : BT.709

Audio
ID : 4352 (0x1100)
Menu ID : 1 (0x1)
Format : AC-3
Format/Info : Audio Coding 3
Mode extension : CM (complete main)
Codec ID : 129
Duration : 1h 13mn
Bit rate mode : Constant
Bit rate : 128 Kbps
Channel(s) : 2 channels
Channel positions : Front: L R
Sampling rate : 48.0 KHz
Bit depth : 16 bits
Compression mode : Lossy
Stream size : 67.2 MiB (1%)

Lineage : LIVE Webcast > WellGet > TSSplitter > MKVToolNix GUI > .mkv > TsMuxer > .m2ts > TMPGEnc Authoring Works 4 > You (LOSSY !!!)

Captured by Soberonez from HD webcast and authored by PagArn

Artwork enclosed.

Enjoy and share freely !!

PagArn, September 2018

Leave a Reply