Nightwish-2018-08-03-Wacken,Germany (Authored By Deer 5001,Pro Shot)

Artist:
Nightwish

Show or Bootleg Title:
2018-08-03 – Wacken Open Air, Wacken, Germany

Source:
Video – Pro Shot

DVD Authoring & DVD Cover By Deer 5001

Audio/Video Specs:
Video
ID : 224 (0xE0)
Format : MPEG Video
Format version : Version 2
Format profile : Main@Main
Format settings, BVOP : Yes
Format settings, Matrix : Custom
Format settings, GOP : Variable
Duration : 21mn 17s
Bit rate : 4 000 Kbps
Width : 720 pixels
Height : 480 pixels
Display aspect ratio : 16:9
Frame rate : 29.970 (30000/1001) fps
Standard : NTSC
Color space : YUV
Chroma subsampling : 4:2:0
Bit depth : 8 bits
Scan type : Progressive
Compression mode : Lossy
Bits/(Pixel*Frame) : 0.386
Time code of first frame : 00:00:00:00
Time code source : Group of pictures header
GOP, Open/Closed : Open
GOP, Open/Closed of first frame : Closed
Stream size : 610 MiB (61%)
Writing library : TMPGEnc Video Mastering Works 5 Version. 5.0.6.38
Color primaries : BT.601 NTSC
Transfer characteristics : BT.601
Matrix coefficients : BT.601

Audio #1
ID : 189 (0xBD)-128 (0x80)
Format : AC-3
Format/Info : Audio Coding 3
Mode extension : CM (complete main)
Format settings, Endianness : Big
Muxing mode : DVD-Video
Bit rate mode : Constant
Bit rate : 448 Kbps
Channel(s) : 6 channels
Channel positions : Front: L C R, Side: L R, LFE
Sampling rate : 48.0 KHz
Frame rate : 31.250 fps (1536 spf)
Compression mode : Lossy
Stream size : 68.2 MiB (7%)

Audio #2
ID : 189 (0xBD)-129 (0x81)
Format : AC-3
Format/Info : Audio Coding 3
Mode extension : CM (complete main)
Format settings, Endianness : Big
Muxing mode : DVD-Video
Bit rate mode : Constant
Bit rate : 448 Kbps
Channel(s) : 2 channels
Channel positions : Front: L R
Sampling rate : 48.0 KHz
Frame rate : 31.250 fps (1536 spf)
Compression mode : Lossy
Stream size : 68.2 MiB (7%)

Audio #3
ID : 189 (0xBD)-162 (0xA2)
Format : PCM
Format settings, Endianness : Big
Format settings, Sign : Signed
Muxing mode : DVD-Video
Bit rate mode : Constant
Bit rate : 1 536 Kbps
Channel(s) : 2 channels
Sampling rate : 48.0 KHz
Bit depth : 16 bits
Stream size : 234 MiB (23%)

Setlist/Chapters:
01. End Of All Hope
02. Wish I Had An Angel
03. Come Cover Me
04. Gethsemane
05. Elan
06. Amaranth
07. I Want My Tears Back
08. Devil & The Deep Dark Ocean
09. Nemo
10. Slaying The Dreamer
11. The Greatest Show On Earth
12. Ghost Love Score

 

 

Leave a Reply