Faith No More-1991-09-24-Sao Paulo,Brazil (Inc Bonus,Aud-Pro Shot)

Artist:
Faith No More

Show or Bootleg Title:
1991-09-24 – Olympia, Sao Paulo, Brazil + Extras

Show Venue:
Olympen – Lund, Sweden

Source:
DVD – Audience

Video Quality/Production Info:
A-

Audio/Video Specs:
Video
ID : 224 (0xE0)
Format : MPEG Video
Format version : Version 2
Format profile : Main@Main
Format settings, BVOP : Yes
Format settings, Matrix : Custom
Format settings, GOP : M=3, N=15
Format settings, picture structure : Frame
Duration : 5mn 36s
Bit rate mode : Variable
Bit rate : 24.7 Mbps
Maximum bit rate : 4 620 Kbps
Width : 720 pixels
Height : 480 pixels
Display aspect ratio : 4:3
Frame rate : 29.970 (30000/1001) fps
Standard : NTSC
Color space : YUV
Chroma subsampling : 4:2:0
Bit depth : 8 bits
Scan type : Interlaced
Scan order : Top Field First
Compression mode : Lossy
Bits/(Pixel*Frame) : 2.380
Time code of first frame : 00:00:00:00
Time code source : Group of pictures header
GOP, Open/Closed : Closed
Stream size : 989 MiB (97%)
Writing library : MTK MT8105
Color primaries : BT.601 NTSC
Transfer characteristics : BT.601
Matrix coefficients : BT.601

Audio
ID : 189 (0xBD)-128 (0x80)
Format : AC-3
Format/Info : Audio Coding 3
Mode extension : CM (complete main)
Format settings, Endianness : Big
Muxing mode : DVD-Video
Duration : 5mn 36s
Bit rate mode : Constant
Bit rate : 256 Kbps
Channel(s) : 2 channels
Channel positions : Front: L R
Sampling rate : 48.0 KHz
Frame rate : 31.250 fps (1536 spf)
Compression mode : Lossy
Stream size : 10.3 MiB (1%)

Format:
PAL

Set List/Chapters:
Information taken from Hothcanada’s page: http://www.phishhook.com/view/details.php?recID=6594546

1. 1997-11-26 @Stahlwerk, Dusseldorf, Germany (21:48, A-)
Midnight Cowboy
Collision
Midlife Crisis
Evidence
Ashes To Ashes

First appearance of this 5 song, pro-shot fragment. Practically the only reason worth acquiring this dvd.

2. 1991-09-24 @Olympia, Sao Paulo, Brazil (39:46, A)
The Real Thing
We Care A Lot
Falling To Pieces (end cut)
The Crab Song
Epic
Surprise!You’re Dead!
Edge Of The World
War Pigs

Speaking strictly from memory (because I have better things to do than actually check), this appears to be the lowest-gen copy to surface (of the meager & unfulfilling portion of this performance that MTV Brazil broadcast) as of 2007-07. There are some minor tracking flaws early on, but the color looks better (less faded) than the Smeagol 2nd gen sourced dvd. I’d probably still rather have that one because of the extravagant menu’s & better editing-out of commercials.

3. 2 TV Appearances in this chapter (11:37)
Jay Leno 1993-01-??
Midlife Crisis
Easy

Conan O’ Brian Show 1995-05-11
Ricochet

Off hand, I would say I’ve seen better Leno’s.
The Conan looks as good as any I can remember (except the one I lost) but it does have a tracking flaw that others definitely do not.

4. 2 TV Appearances (27:58)
The Word, London, England 1992-12-??
Everything’s Ruined

“Nojerevyn” Swedish TV 1995-03-??
Interview with Billy & Patton + promo vids.

This version of “The Word” is complete & utter crap. The definitive version appears on the compilation dvd, 1990-07-?? – 1995-06-09 (RealKosh) “Rare Performances”.

For the definitive version of “Nojerevyn” seek out the following compilation dvd, 1995-03-22 – 1995-03-?? (Lurifax) “FNM TV Clips, Vol. 2”

Menu: SA
Chapters: NO
Artwork: NO

Leave a Reply