Nightwish-2012-07-12-Montreux,Switzerland (Unknown-Pagarn Ver,HDTV Broadcast,BD)

Nightwish
Montruex Jazz Festival, Montreux, Switzerland, 2012.07.12
(ProShot PAL BD25)
PagArn Productions BD-144

Setlist :
01. Slow, Love, Slow
02. I Want My Tears Back
03. Come Cover Me
04. Last Of The Wilds
05. Planet Hell
06. Nemo
07. Over The Hills And Far Away
08. Song Of Myself
09. Last Ride Of The Day

General
ID : 1 (0x1)
Complete name : Nightwish – 2012-07-12 – Montreux Jazz Festival, Montreux, Switzerland (Unknwon-Pagarn BD-144 BD25)\BDMV\STREAM\00003.m2ts
Format : BDAV
Format/Info : Blu-ray Video
File size : 6.77 GiB
Duration : 50mn 6s
Overall bit rate mode : Variable
Overall bit rate : 19.3 Mbps
Maximum Overall bit rate : 26.3 Mbps

Video
ID : 4113 (0x1011)
Menu ID : 1 (0x1)
Format : MPEG Video
Format version : Version 2
Format profile : Main@High
Format settings, BVOP : Yes
Format settings, Matrix : Custom
Format settings, GOP : M=3, N=18
Codec ID : 2
Duration : 50mn 6s
Bit rate mode : Variable
Bit rate : 18.1 Mbps
Maximum bit rate : 23.0 Mbps
Width : 1 280 pixels
Height : 720 pixels
Display aspect ratio : 16:9
Frame rate : 50.000 fps
Standard : Component
Color space : YUV
Chroma subsampling : 4:2:0
Bit depth : 8 bits
Scan type : Progressive
Compression mode : Lossy
Bits/(Pixel*Frame) : 0.393
Stream size : 6.34 GiB (94%)
Writing library : TMPGEnc Authoring Works 4 Version. 4.0.11.39
Color primaries : BT.709
Transfer characteristics : BT.709
Matrix coefficients : BT.709

Audio
ID : 4352 (0x1100)
Menu ID : 1 (0x1)
Format : AC-3
Format/Info : Audio Coding 3
Mode extension : CM (complete main)
Codec ID : 129
Duration : 50mn 6s
Bit rate mode : Constant
Bit rate : 448 Kbps
Channel(s) : 6 channels
Channel positions : Front: L C R, Side: L R, LFE
Sampling rate : 48.0 KHz
Bit depth : 16 bits
Compression mode : Lossy
Stream size : 161 MiB (2%)

Lineage : Unknown > .TS > TMPGEnc Authoring Works 4 > You

Captured by Unknown from HDTV and authored by PagArn

Artwork enclosed ; please feel free to create and share a better one !

Enjoy and share freely !!

PagArn, April 2018

Leave a Reply